Home » Files » MOVIES

Annabelle: Creation (2017) HD
[ Download from this server (117.9Kb) · Screenshot ] 03.09.2017, 19:03

1.4 GB

Several years after the tragic death of their little girl, a dollmaker and his wife welcome a nun and several girls from a shuttered orphanage into their home, soon becoming the target of the dollmaker's possessed creation, Annabelle.

Events unfold in the family of the puppeteer, where a very terrible grief occurs, the daughter dies. For a long time the family could not recover from this condition. Annabelle: Creation (2017) Torrent The wound in the shower was very deep. All this went on for a very long time.

c8ae77bfde998d58134ad7443df2bb3e.pngbd15106a250901f0c680229713577719.png

Still, there comes a time when the wife and husband cease to suffer. They do not grieve over the tragedy, but try to establish their own lives. Annabelle: Creation (2017) Torrent After some time a nun comes to the house as a hero. The woman did not want to go herself, so together they took a few girls from the shelter.

These girls wanted to go with her for a long time. They dreamed of watching the work of the mentor. Annabelle: Creation (2017) Torrent The nun should explain all the rituals, but the problem is that along with these heroes, a demon takes possession of the house and takes possession of the doll. How will he behave this time? The demon believes that there are still few deaths, so he does everything in order to frighten the owners.

16076e37ad5e53fe4bd0c95b5a441a0f.png9ba2d7fe752d757c3b1a3e97ee30c154.png

Residents of the house do not understand what they will have to fight with. They only think about how to stay alive, and also drive away the monster. Annabelle: Creation (2017) Torrent The doll is not afraid to kill one after another and thirst does not even leave it for a minute. How will the subsequent events unfold? What will end an interesting story?

General 

Format : AVI 
Format/Info : Audio Video Interleave 
File size : 1.42 GiB 
Duration : 1 h 48 min 
Overall bit rate : 1 871 kb/s 

Video 

ID : 0 
Format : MPEG-4 Visual 
Format profile : Advanced Simple@L5 
Format settings, BVOP : 2 
Format settings, QPel : No 
Format settings, GMC : No warppoints 
Format settings, Matrix : Default (H.263) 
Codec ID : XVID 
Codec ID/Hint : XviD 
Duration : 1 h 48 min 
Bit rate : 1 670 kb/s 
Width : 720 pixels 
Height : 304 pixels 
Display aspect ratio : 2.35:1 
Frame rate : 29.970 (30000/1001) FPS 
Color space : YUV 
Chroma subsampling : 4:2:0 
Bit depth : 8 bits 
Scan type : Progressive 
Compression mode : Lossy 
Bits/(Pixel*Frame) : 0.255 
Stream size : 1.27 GiB (89%) 
Writing library : XviD 67 

Audio 

ID : 1 
Format : AC-3 
Format/Info : Audio Coding 3 
Format settings, Endianness : Big 
Codec ID : 2000 
Duration : 1 h 48 min 
Bit rate mode : Constant 
Bit rate : 192 kb/s 
Channel(s) : 2 channels 
Channel positions : Front: L R 
Sampling rate : 44.1 kHz 
Frame rate : 28.711 FPS (1536 SPF) 
Bit depth : 16 bits 
Compression mode : Lossy 
Stream size : 150 MiB (10%) 
Alignment : Aligned on interleaves 
Interleave, duration : 70 ms (2.09 video frames) 
Interleave, preload duratio : 208 ms 
Title : English 
Service kind : Complete Main

Category: MOVIES | Added by: mikail | Tags: hd torrent, online torrent, download torrent, for free, watch now, Annabelle: Creation (2017) Torrent, movies torrent 2017
Views: 3667 | Downloads: 1536
Loading...
Total comments: 0
avatar