Home » Files » MOVIES

Geostorm (2017)
[ Download from this server (56.9Kb) · Screenshot ] 21.11.2017, 07:50
Loading...

2.82 GB

When catastrophic climate change endangers Earth's very survival, world governments unite and create the Dutch Boy Program: a world wide net of satellites, surrounding the planet, that are armed with geoengineering technologies designed to stave off the natural disasters. After successfully protecting the planet for two years, something is starting to go wrong. Geostorm (2017) Torrent Two estranged brothers are tasked with solving the program's malfunction before a world wide Geostorm can engulf the planet.

de6b9b0c19e5dfbca557fce3e7e6dc5f.th.png 0616bada49c0170c972ca9cac96495de.th.png

Geostorm (2017) Torrent For many centuries people were powerless against the forces of the elements. Geostorm (2017) Torrent HD But the problem could be solved by Max brothers and Jake Lawson, having developed a system of satellites that could not only predict, but also deal with many natural disasters. When the system of thermospheric satellites was launched, people could completely control the weather phenomena, as publicly stated and American President Andrew Palma. Geostorm (2017) Torrent Download But a couple of years later, the system unexpectedly crashed and the satellite that controlled the territory of Afghanistan was out of order, which led to the death of people from severe frostbite.

After this incident, Jack Lawson had to go to near-earth orbit, to make the system work. But it turned out that the failure of the satellites was not accidental. Someone managed to hack the system, and now Jake did not have access to it. Geostorm (2017) Torrent Watch Meanwhile, a wave of all kinds of weather disasters swept the whole planet. Max, who was with the administration of President Palma, understood that if the system is not set up, then soon all cataclysms will unite into a powerful geostream that will erase almost the entire human civilization from the face of the planet. It was possible to avoid this only by disabling the entire system, Geostorm (2017) Torrent For Free but for this it was necessary to have a cancellation code, which Max had to transfer to the brother in orbit. The code was only from President Palma, Geostorm (2017) Torrent so to prevent the disaster, Max will have to kidnap the head of state.

Video
ID                                       : 1
Format                                   : AVC
Format/Info                              : Advanced Video Codec
Format profile                           : High@L4.1
Format settings                          : CABAC / 4 Ref Frames
Format settings, CABAC                   : Yes
Format settings, ReFrames                : 4 frames
Codec ID                                 : avc1
Codec ID/Info                            : Advanced Video Coding
Duration                                 : 1 h 48 min
Bit rate                                 : 3 500 kb/s
Width                                    : 1 280 pixels
Height                                   : 534 pixels
Display aspect ratio                     : 2.40:1
Original display aspect ratio            : 2.40:1
Frame rate mode                          : Constant
Frame rate                               : 30.000 FPS
Color space                              : YUV
Chroma subsampling                       : 4:2:0
Bit depth                                : 8 bits
Scan type                                : Progressive
Bits/(Pixel*Frame)                       : 0.171
Stream size                              : 2.64 GiB (94%)
Title                                    : Geostorm.2017.720p.KORSUB.HDRip.x264.AAC2.0-STUTTERSHIT
Writing library                          : x264 core 148 r2795M aaa9aa8
Encoding settings                        : cabac=1 / ref=4 / deblock=1:0:0 / analyse=0x3:0x113 / me=umh / subme=8 / psy=1 / psy_rd=1.00:0.00 / mixed_ref=1 / me_range=16 / chroma_me=1 / trellis=2 / 8x8dct=1 / cqm=0 / deadzone=21,11 / fast_pskip=1 / chroma_qp_offset=-2 / threads=40 / lookahead_threads=4 / sliced_threads=0 / nr=0 / decimate=1 / interlaced=0 / bluray_compat=0 / constrained_intra=0 / bframes=3 / b_pyramid=2 / b_adapt=2 / b_bias=0 / direct=3 / weightb=1 / open_gop=0 / weightp=2 / keyint=250 / keyint_min=25 / scenecut=40 / intra_refresh=0 / rc_lookahead=50 / rc=abr / mbtree=1 / bitrate=3500 / ratetol=1.0 / qcomp=0.60 / qpmin=0 / qpmax=69 / qpstep=4 / ip_ratio=1.40 / aq=1:1.00

Audio
ID                                       : 2
Format                                   : AAC
Format/Info                              : Advanced Audio Codec
Format profile                           : LC
Codec ID                                 : mp4a-40-2
Duration                                 : 1 h 48 min
Bit rate mode                            : Constant
Bit rate                                 : 224 kb/s
Channel(s)                               : 2 channels
Channel positions                        : Front: L R
Sampling rate                            : 48.0 kHz
Frame rate                               : 46.875 FPS (1024 SPF)
Compression mode                         : Lossy
Stream size                              : 173 MiB (6%)
Title                                    : Geostorm.2017.720p.KORSUB.HDRip.x264.AAC2.0-STUTTERSHIT
Language                                 : English
Default                                  : Yes
Alternate group                          : 1

Category: MOVIES | Added by: mikail | Tags: movies torrent 2017, torrent now 2017, watch for free, download torrent, Geostorm Torrent, Geostorm (2017) Torrent, hd torrent
Views: 1651 | Downloads: 685
Loading...
Total comments: 0
avatar