Home » Files » MOVIES

Guardians of the Galaxy Vol. 2 (2017) HD
[ Download from this server (64.2Kb) · Screenshot ] 18.06.2017, 18:53

3.2 GB

After saving Xandar from Ronan's wrath, the Guardians are now recognized as heroes. Now the team must help their leader Star Lord (Chris Pratt) uncover the truth behind his true heritage. Along the way, old foes turn to allies and betrayal is blooming. And the Guardians find that they are up against a devastating new menace who is out to rule the galaxy.

69aa26537675da717d26d68aa7d24962.th.png e2fa10a339260556185b8d77e19d461b.th.png

While doing hiring work for the Sovereign race, the Guardians of the Galaxy Vol. 2 torrent now Guard steals batteries that should have been guarded. As a result, Souls are hunted. When the heroes flee, they stumble upon the Ego (Kurt Russell) - the father of Peter Quill (Chris Pratt), who turns out to be a powerful and immortal cosmic being. Peter is happy that he finally met his dad, but his companions suspect that the ego wants from the son not only filial love. Meanwhile, a team of Ravager Pirates raises a rebellion against its leader Yonda, who raised Peter, and the Guardians are involved in this conflict.

Delicious soup is a dish of many ingredients, and a good cook should know which ingredient is the main ingredient and which is the seasoning. When three years ago James Gunn and Marvel released the first "Guardians of the Galaxy Vol. 2 torrent for free", they knew that for a genre soup called "ironic space adventure" the main component is drive. That is, an exciting promotion of the characters to a certain goal or a constant confrontation with a powerful opponent. Of course, such a movie should have many other ingredients, and they were with the "Sentinels". But drive is the heart of an adventure blockbuster, and all the other components of the movie would be lost if Gunn forgot to crash the plot dynamics into the pot.

58ca73eab509ff086059ed58cfca42f8.th.png ebf59f145d9673ab63b3549cafaaa716.th.png

Unfortunately, that's what happened in the "Guardians of the Galaxy Vol. 2 watch online". The picture starts vigorously and ends powerfully, but the middle shamelessly sags, because the protagonists for a long time are wiped out on the planet of the Ego (the character of Russell has a personal planet where no one else lives) and wait for the plot gears to finish the ending.

Clearly, Gunn was inspired by the fifth episode of "Star Wars", where the action was also not as dynamic as in the fourth episode, and where the characters could calmly think and talk. But in the second "Guardians of the Galaxy Vol. 2 torrent download" nothing happens that would be comparable in importance and amusement with the Jedi training of Luke and with the development of the novel by Han and Leah. In this case, even in quiet scenes of the fifth episode, the characters remembered that they were in mortal danger. And in the "Guardians of the Galaxy Vol. 2 torrent hd" this sensation does not exist. Sovereigns and Devastators are numerous and spiteful enemies, but rather comical, and they do not come from such a threat as from Darth Vader or from Ronan and Thanos in the first "Guardians of the Galaxy Vol. 2 torrent watch" In addition, while the heroes are on the planet of the Ego, they are not threatened by any external force.

General

Format : Matroska
Format version : Version 2
File size : 3.18 GiB
Duration : 2h 16mn
Overall bit rate : 3 342 Kbps

Video
ID : 1
Format : HEVC
Format/Info : High Efficiency Video Coding
Format profile : Main@L3.1
Codec ID : V_MPEGH/ISO/HEVC
Duration : 2h 16mn
Bit rate : 3 084 Kbps
Width : 1 280 pixels
Height : 512 pixels
Display aspect ratio : 2.500
Frame rate mode : Constant
Frame rate : 29.970 fps
Color space : YUV
Chroma subsampling : 4:2:0
Bit depth : 8 bits
Bits/(Pixel*Frame) : 0.157
Stream size : 2.93 GiB (92%)
Default : Yes
Forced : No

Audio
ID : 2
Format : AC-3
Format/Info : Audio Coding 3
Mode extension : CM (complete main)
Format settings, Endianness : Big
Codec ID : A_AC3
Duration : 2h 16mn
Bit rate mode : Constant
Bit rate : 192 Kbps
Channel(s) : 2 channels
Channel positions : Front: L R
Sampling rate : 48.0 KHz
Bit depth : 16 bits
Compression mode : Lossy
Delay relative to video : 19s 0ms
Stream size : 187 MiB (6%)
Default : Yes
Forced : No

Category: MOVIES | Added by: mikail | Tags: Guardians of the Galaxy Vol. 2 2017, Guardians of the Galaxy Vol. 2, movies torrent 2017
Views: 1083 | Downloads: 657

We will find for you any torrent file. Just Email Us: overhear1995@gmail.com

Loading...
Total comments: 0
avatar