Home » Files » MOVIES

Hacksaw Ridge DOWNLOAD TORRENT
[ Download from this server (156.7Kb) · Screenshot ] 27.11.2016, 04:07

1.95 GB

WWII American Army Medic Desmond T. Doss, who served during the Battle of Okinawa, refuses to kill people, and becomes the first man in American history to win the Medal of Honor without firing a shot.

Video
Format : AVC
Format/Info : Advanced Video Codec
Format profile : High@L4.2
Format settings, CABAC : Yes
Format settings, ReFrames : 4 frames
Codec ID : V_MPEG4/ISO/AVC
Duration : 2 h 2 min
Bit rate mode : Variable
Bit rate : 2 000 kb/s
Maximum bit rate : 62.5 Mb/s
Width : 720 pixels
Height : 320 pixels
Display aspect ratio : 2.25:1
Frame rate mode : Constant
Frame rate : 30.000 FPS
Color space : YUV
Chroma subsampling : 4:2:0
Bit depth : 8 bits
Scan type : Progressive
Bits/(Pixel*Frame) : 0.289
Stream size : 1.67 GiB

Audio
Format : AC-3
Format/Info : Audio Coding 3
Mode extension : CM (complete main)
Format settings, Endianness : Big
Codec ID : A_AC3
Duration : 2 h 2 min
Bit rate mode : Constant
Bit rate : 256 kb/s
Channel(s) : 2 channels
Channel positions : Front: L R
Sampling rate : 48.0 kHz
Frame rate : 31.250 FPS (1536 spf)
Compression mode : Lossy
Stream size : 225 MiB (11%)
Default : Yes
Forced : No

Desmond Doss - good-natured, smiling young man, honest and well-mannered. He lives the life of an ordinary person and enjoys the simple things: Sunny morning, walk in the woods, the charming nurse of the smile of the city hospital. He once saved the life of a passerby, who was hit by a car, and by the will of the case met his future wife. The Second World War has left its mark on the dirty world and human life, there was Pearl Harbor. Desmond decided that he could not sit still, while others defend all that they hold dear from this terrible threat. Being a pacifist religious beliefs, he still joined the ranks of the army and decided that the weapon will not touch, but go to the front as a medical orderly, to save people, not ubivat.Eta idea to turn his ordeal before the fighting began: the threat commanders contempt of colleagues, bullying and ridicule will pursue its full course. None of his friends could not imagine that many will stay alive only because of this lean boy with disheveled hair.

The film begins rather like a romantic comedy than a war drama. The first act is devoted entirely to peaceful life and Desmond acquaintance with his future wife - a nurse Dorothy, played by a little-known, but no less remarkable Teresa Palmer. At first, Andrew Garfield, who plays Doss, slightly misses the way and a little overacting, but Mel is more than compensates for this successful jokes and youthful enthusiasm, which is a love story of Dorothy and Desmond. In addition, in his small role as a father Desmond shines Hugo Weaving, who is now on the screen you will see often. He got a few emotional scenes from which the viewer not just runners goosebumps.

Hacksaw Ridge - directing Mel Gibson's comeback after a long break. Surprisingly, Gibson was able to immediately return to the profession by removing a very strong and balanced film. The story of Desmond Doss, First Conscientious Objector US Army, directed right accents, giving the first half of the film light youthful enthusiasm, and the second - a real man's severity and exposure. The film does not flaunt ostentatious patriotism, no pressure and tear shows the horrific events of those days, through the lens of human lives.

Category: MOVIES | Added by: mikail
Views: 10868 | Downloads: 5851

If you have problems with torrent file ask us

DOWNLOAD TORRENT FOR FREE
Loading...