Loading...
Home » Files » MOVIES

Haraamkhor (2017)
[ Download from this server (340.0Kb) · Screenshot ] 02.02.2017, 23:23

4.23 GB

An unlikely love triangle unfolds when married professor, Shyam, has an illicit affair with his student, Sandhya, who in turn is trying to be wooed by her classmate Kamal. Haraamkhor is a prohibited love story witnessed by two adolescents.

Language: Hindi

General
Complete name               : Haraamkhor.2017.720p.WEB-DL.H263.AAC2.0.ESub-DDR.mp4
Format                      : MPEG-4
Format profile              : Base Media
Codec ID                    : isom (isom/iso2/mp41)
File size                   : 4.22 GiB
Duration                    : 1 h 32 min
Overall bit rate mode       : Constant
Overall bit rate            : 6 546 kb/s
Writing application         : Lavf55.33.100
Source                      : NetFlix

Video
ID                          : 1
Format                      : MPEG-4 Visual
Format profile              : Simple@L1
Format settings, BVOP       : No
Format settings, QPel       : No
Format settings, GMC        : No warppoints
Format settings, Matrix     : Default (H.263)
Codec ID                    : 20
Duration                    : 1 h 32 min
Bit rate mode               : Constant
Bit rate                    : 6 411 kb/s
Width                       : 1 280 pixels
Height                      : 720 pixels
Display aspect ratio        : 16:9
Frame rate mode             : Constant
Frame rate                  : 23.976 (23976/1000) FPS
Color space                 : YUV
Chroma subsampling          : 4:2:0
Bit depth                   : 8 bits
Scan type                   : Progressive
Compression mode            : Lossy
Bits/(Pixel*Frame)          : 0.290
Stream size                 : 4.14 GiB (98%)
Writing library             : Lavc55.52.102

Audio
ID                          : 2
Format                      : AAC
Format/Info                 : Advanced Audio Codec
Format profile              : LC
Codec ID                    : 40
Duration                    : 1 h 32 min
Bit rate mode               : Constant
Bit rate                    : 128 kb/s
Channel(s)                  : 2 channels
Channel positions           : Front: L R
Sampling rate               : 44.1 kHz
Frame rate                  : 43.066 FPS (1024 spf)
Compression mode            : Lossy
Stream size                 : 84.6 MiB (2%)
Language                    : English
Default                     : Yes

683d194f0d829fded611fb63ee840f13.pngb1707e0e669d7d16ddaa20d99b6f6f57.png

The film is about an unusual love triangle, which explores the complexity of human emotions and relationships. Haraamkhor (2017) Torrent This is the story of a married teacher, his 14-year-old student and a young boy, who are drawn into the world of love, passion and violence. Haraamkhor (2017) Torrent Download HD.

Haraamkhor (2017) Torrent - a film based on the forbidden relationship between a teacher and his student, who showed us the director sloka Sharma. The film has been accused of distributing unethical romantic relationships. Therefore, it was forbidden to enter the screens, but after some time, all the problems have been resolved. Haraamkhor (2017) Torrent HD Download.

bca365469befab62e9e7f2a78d0ceceb.png11997084d3f627931b032204adf78ccd.png

फिल्म दो छोटे उम्र के लड़कों कमल और उसकी कुख्यात दोस्त मिंटू की आंखों के माध्यम से करेंगी। कमल संध्या और मिंटू विचित्र तरीके से पता चलता है मदद करने के लिए कमल महिला को लुभाने के प्यार करता है। दो ठीक ही संदेह है कि संध्या और श्याम और इस प्रकार के बीच कुछ पक के दो हर जगह निम्नलिखित खत्म होता है। इस बीच, 'लड़कों के इरादे, संध्या, उसकी मां ने छोड़ दिया और उसके standoffish पिता के लिए चिंतित पूरी तरह से अनजान, श्याम में सांत्वना पाता है। वह उसके साथ उसके यौन भागीदारी के रूप में उनकी हिंसक विस्फोट का नजारा दिखता है, उसके निर्णय बादल। श्याम इसके विपरीत, एक अवसरवादी, जो अपने स्वार्थी हितों के लिए महिला और यहां तक कि उनकी पत्नी manipulates है। हालांकि, वह पूरी तरह से नहीं की गलती के रूप में लड़की स्वेच्छा से उस पर ले जाता है।47125e4e61edb36c113e4a04218270e0.png8d017c1d1fab2dba7410e37e83dba9d5.png

Haraamkhor पक्ष लेने के बिना एक महत्वपूर्ण मुद्दे पते और कहा कि सराहनीय है। अफसोस की बात है, धर्मी सामाजिक जागरूकता अस्वीकरण कि 'पतला विवादास्पद' दृश्यों के दौरान अक्सर दिखाई देते हैं, फिल्म के अंधेरे हास्य या दुस्साहसिक प्रकृति अवतार लेना नहीं है।

उछल कथा एक बहुत अनुत्तरित छोड़ देता है, जिससे आप पात्रों के प्रति उदासीन लग रहा है। यह अच्छा है जब एक फिल्म निर्माता दर्शकों की व्याख्या करने के लिए कुछ बातों को छोड़ देता है, लेकिन श्लोक शर्मा रास्ता भी उसकी पहले से न सोचा दर्शक से ज्यादा उम्मीद है। यह एक समय के बाद रिक्त स्थान को भरने के लिए थकाऊ है। जो लोग एक त्योहार का दावा है कि कुछ दृश्यों में कटौती की गई है और क्या आप प्राप्त इस फिल्म को देखा है एक पानी के नीचे संस्करण है। कारण जो भी हो, वे काट लगते हैं और है कि आप से दूर रखता है।

Category: MOVIES | Added by: mikail | Tags: hindi movies 2017, Haraamkhor 2017 torrent hd, Haraamkhor download hindi
Views: 9785 | Downloads: 4613
Loading...

We'll find any torrent file Just email us:overhear1995@gmail.com

Problems with torrent file? Email Us:overhear1995@gmail.com