Home » Files » MOVIES

Jeepers Creepers 3 (2017)
[ Download from this server (70.8Kb) · Screenshot ] 14.11.2017, 00:58

3.52 GB

Set between the first and second film, Sgt Davis Tubbs assembles a task force to destroy the Creeper once and for all while growing closer than ever before to learning the secrets of its dark origins, as the monster terrorizes a local farming community.

e316fc60c4fb74f1687318cacb1919c2.th.png cbdf873d669fc1f0965e5a6d84ac1645.th.png

Faced twenty-three years ago with monster Jeepers Creepers, Trish and her brother Darry struggled to survive in that uneven battle. Jeepers Creepers 3 Torrent (2017) Then they managed to defeat the monster, but without loss it still happened. Darry was killed, which was a powerful blow to his own sister. Trish knew that their meeting with Creepers was only a matter of time, and therefore she had to do something. Jeepers Creepers 3 Torrent (2017) Now she was in charge not only for herself, but also for her little son, whom she named after her brother Darri. Becoming influential and recognizable, the woman gave the order to find the monster that was about to awaken and send it to hell, the very place that had been prepared for him beforehand.

However, Jeepers Creepers seemed to know about the plan of Trish. He was already ready for this meeting, and so he himself prepared many surprises for his "guests." Jeepers Creepers 3 Torrent (2017) Let's see if the main character with lead-ridden lead rifles will be able to cope with the monster, which for twenty-three years now does not allow her to sleep peacefully at night. Will she get, despite her unequal power with the enemy, to save her Darry. Jeepers Creepers 3 Torrent (2017) Once she has already lost a loved one, there is no longer any right to make a mistake, because then the price will be too expensive - her own son ...

Video
ID                                       : 1
Format                                   : AVC
Format/Info                              : Advanced Video Codec
Format profile                           : High@L4.1
Format settings                          : CABAC / 4 Ref Frames
Format settings, CABAC                   : Yes
Format settings, ReFrames                : 4 frames
Codec ID                                 : V_MPEG4/ISO/AVC
Duration                                 : 1 h 25 min
Bit rate                                 : 5 500 kb/s
Width                                    : 1 920 pixels
Height                                   : 804 pixels
Display aspect ratio                     : 2.40:1
Frame rate mode                          : Constant
Frame rate                               : 29.970 (30000/1001) FPS
Color space                              : YUV
Chroma subsampling                       : 4:2:0
Bit depth                                : 8 bits
Scan type                                : Progressive
Bits/(Pixel*Frame)                       : 0.119
Stream size                              : 3.22 GiB (91%)
Title                                    : Jeepers.Creepers.3.2017.1080p.HDTV.DD5.1.x264-FGT
Writing library                          : x264 core 148 r2795M aaa9aa8
Encoding settings                        : cabac=1 / ref=4 / deblock=1:0:0 / analyse=0x3:0x113 / me=umh / subme=8 / psy=1 / psy_rd=1.00:0.00 / mixed_ref=1 / me_range=16 / chroma_me=1 / trellis=2 / 8x8dct=1 / cqm=0 / deadzone=21,11 / fast_pskip=1 / chroma_qp_offset=-2 / threads=40 / lookahead_threads=6 / sliced_threads=0 / nr=0 / decimate=1 / interlaced=0 / bluray_compat=0 / constrained_intra=0 / bframes=3 / b_pyramid=2 / b_adapt=2 / b_bias=0 / direct=3 / weightb=1 / open_gop=0 / weightp=2 / keyint=250 / keyint_min=25 / scenecut=40 / intra_refresh=0 / rc_lookahead=50 / rc=abr / mbtree=1 / bitrate=5500 / ratetol=1.0 / qcomp=0.60 / qpmin=0 / qpmax=69 / qpstep=4 / ip_ratio=1.40 / aq=1:1.00
Default                                  : Yes
Forced                                   : No

Audio
ID                                       : 2
Format                                   : AC-3
Format/Info                              : Audio Coding 3
Codec ID                                 : A_AC3
Duration                                 : 1 h 25 min
Bit rate mode                            : Constant
Bit rate                                 : 384 kb/s
Channel(s)                               : 6 channels
Channel positions                        : Front: L C R, Side: L R, LFE
Sampling rate                            : 48.0 kHz
Frame rate                               : 31.250 FPS (1536 SPF)
Bit depth                                : 16 bits
Compression mode                         : Lossy
Delay relative to video                  : 14 ms
Stream size                              : 235 MiB (7%)
Title                                    : Jeepers.Creepers.3.2017.1080p.HDTV.DD5.1.x264-FGT
Language                                 : English
Service kind                             : Complete Main
Default                                  : Yes
Forced                                   : No

Category: MOVIES | Added by: mikail | Tags: movies torrents 2017, hd torrent, Jeepers Creepers 3 Torrent, online for free, download torrent
Views: 350 | Downloads: 118
Loading...
Total comments: 0
avatar