Home » Files » MOVIES

Jolly LLB 2 (2017)
[ Download from this server (28.2Kb) · Screenshot ] 10.02.2017, 20:41

698.20 MB

Jolly is a clumsy lawyer who is faced with representing the most critical court case of his career.

Language: Hindi

Video
ID : 1
Format : AVC
Format/Info : Advanced Video Codec
Format profile : High@L2.2
Format settings, CABAC : Yes
Format settings, ReFrames : 4 frames
Codec ID : V_MPEG4/ISO/AVC
Duration : 2 h 12 min
Bit rate : 353 kb/s
Width : 704 pixels
Height : 304 pixels
Display aspect ratio : 2.35:1
Frame rate mode : Constant
Frame rate : 15.000 FPS
Color space : YUV
Chroma subsampling : 4:2:0
Bit depth : 8 bits
Scan type : Progressive
Bits/(Pixel*Frame) : 0.110
Stream size : 334 MiB (48%)
Default : Yes
Forced : No

Audio
ID : 2
Format : AC-3
Format/Info : Audio Coding 3
Mode extension : CM (complete main)
Format settings, Endianness : Big
Codec ID : A_AC3
Duration : 2 h 12 min
Bit rate mode : Constant
Bit rate : 384 kb/s
Channel(s) : 2 channels
Channel positions : Front: L R
Sampling rate : 48.0 kHz
Frame rate : 31.250 FPS (1536 spf)
Bit depth : 16 bits
Compression mode : Lossy
Stream size : 363 MiB (52%)
Language : Hindi
Default : Yes
Forced : No

65f6281b063a897aec3f01b78c200371.th.jpg ff7e1150de1805f259598c36d98c4bd3.th.jpg 62eab5a461f04037fde0fd5bbc18bf75.th.jpg 36b8f723a6c63d69ed2e7191be3de59b.th.jpg

The first film was released in 2013 and had the name "Jolly - LLB / Jolly LLB». The second part of the Indian comedy due in theaters February 10, 2017. Starring actor Akshay Kumar. Not every person engaged in the business, which he dreamed as a child. Jolly LLB 2 (2017) Torrent Often the circumstances are such that we have to work for the hated work, while experiencing only the negative emotions. But when the ambitions embodied in the life of a man flying as if on wings, and it can rightfully be called happy. Jolly LLB 2 (2017) Torrent HD Download.

Indian Cinema «Jolly LLB 2" (2017) tells the story of a guy named Jagdish Tyagi. Friends call him a Jolly. He was a childhood dream - to become a lawyer. But it is not simple, and successful, well-known, popular lawyer. Jolly LLB 2 (2017) Torrent After high school, he began to translate his dream into reality. He entered the Faculty of Law, graduated, started working in a small town. But no matter how he tried to become a truly successful lawyer he can not. Perhaps because the town is too small, and no prospects here. Jolly LLB 2 (2017) Torrent Download.

Then Jolly decides - it is necessary to move in the country's capital and to realize their ambitions there. Already in the big city he certainly succeed. Jolly LLB 2 (2017) Torrent He fulfills his intention, and his life is quite different from that day. Is Jolly will manage not to get lost in the city, to apply their knowledge and become steep specialist of her business? Or is it just a gamble that no good will not end? Jolly LLB 2 (2017) Torrent HD.

राज्य बनाम जॉली एलएलबी 2 या आमतौर पर बस जॉली एलएलबी 2 के रूप में जाना जाता है एक 2017 भारतीय ब्लैक कॉमेडी फिल्म है, लिखा और सुभाष कपूर द्वारा निर्देशित है। 2013 फिल्म जॉली एलएलबी, फिल्मी सितारों अक्षय कुमार, हुमा कुरैशी, सौरभ शुक्ला और अन्नू कपूर मुख्य भूमिका में करने के लिए एक अगली कड़ी है। एक अदालत नाटक जो भारतीय कानून व्यवस्था की धारणा satirizes, कहानी Jagdishwar मिश्रा (कुमार), एक वकील क्रूर और शक्तिशाली वकील सचिन माथुर (कपूर) के खिलाफ मामला लड़ता है जो इस प्रकार है।

भारतीय सिनेमा «जॉली एलएलबी 2" (2017) जगदीश त्यागी नाम के एक आदमी की कहानी कहता दोस्त उसे एक फोन जॉली वह एक बचपन का सपना था -।।। एक वकील बनने के लिए लेकिन यह आसान नहीं है, और सफल, अच्छी तरह से जाना जाता है, लोकप्रिय वकील। हाई स्कूल के बाद, वह हकीकत में अपने सपने को अनुवाद करने के लिए शुरू कर दिया। उन्होंने कहा कि विधि संकाय में प्रवेश किया, स्नातक की उपाधि प्राप्त है, एक छोटे से शहर में काम शुरू कर दिया। लेकिन कोई बात नहीं कैसे वह वास्तव में एक सफल वकील वह नहीं कर सकता बनने की कोशिश की। इसकी वजह शायद यह शहर बहुत छोटा है, और यहाँ कोई संभावना तब जॉली का फैसला करता है। - यह देश की राजधानी में स्थानांतरित करने के लिए और वहाँ अपनी महत्वाकांक्षाओं को साकार करने के लिए आवश्यक है

Category: MOVIES | Added by: mikail | Tags: Jolly LLB 2 (2017) Torrent HD, Jolly LLB 2 (2017) Torrent Hindi, Jolly LLB 2 (2017) Torrent Download
Views: 283274 | Downloads: 151052
Loading...
Total comments: 0
avatar