Home » Files » MOVIES

Keeping Up with the Joneses DOWNLOAD TORRENT
[ Download from this server (18.6Kb) · Screenshot ] 28.11.2016, 03:39

452.10 MB

A suburban couple becomes embroiled in an international espionage plot when they discover that their seemingly perfect new neighbors are government spies.

Language : English
Default : Yes
Forced : No
Color range : Limited
Color primaries : BT.601 NTSC
Transfer characteristics : BT.709
Matrix coefficients : BT.601

Audio
ID : 2
Format : AAC
Format/Info : Advanced Audio Codec
Format profile : LC
Codec ID : A_AAC
Duration : 1 h 44 min
Bit rate : 129 kb/s
Channel(s) : 2 channels
Channel positions : Front: L R
Sampling rate : 44.1 kHz
Frame rate : 43.066 FPS (1024 spf)
Compression mode : Lossy
Delay relative to video : -23 ms
Stream size : 96.7 MiB (21%)

Video
ID : 1
Format : AVC
Format/Info : Advanced Video Codec
Format profile : High@L3.1
Format settings, CABAC : Yes
Format settings, ReFrames : 4 frames
Codec ID : V_MPEG4/ISO/AVC
Duration : 1 h 44 min
Bit rate : 472 kb/s
Width : 720 pixels
Height : 320 pixels
Display aspect ratio : 2.25:1
Frame rate mode : Variable
Frame rate : 29.914 FPS
Color space : YUV
Chroma subsampling : 4:2:0
Bit depth : 8 bits
Scan type : Progressive
Bits/(Pixel*Frame) : 0.068
Stream size : 354 MiB (78%)
Title : Lesnar

81824d772d92aa4746bc1a45ff79b52b.png

2b9645d00bf57c2af0dd214259027244.png

cd8332f6f74dd97efc5281a1c8d5629a.png

A simple story turned out. But fun and funny. Unless, of course, not specifically to find fault with each rivet. Well, the personnel officer at a serious company probably should not be starry-eyed fool. Yes, the real aces intelligence hardly left on the mind of its production tools ... But why all this when there borodatenky Zak luxury Gal, pretty cool and Islay, John? And yet - the shooting, chase, finding bugs and all that it relies on canon spy genre films.

Very surprised Zach Galifianakis. Even there, incredibly surprised, he knocked down, confused. I could not find it in this guy. He is very thin and seemingly changed beyond recognition. For health is certainly good, but its charm it lost. It simply does not know this unpleasant loser. He no longer amuses among his cheeks. Unfortunately for us, mere spectators, we lost Zack. But I am very happy for the actor, it is well done, it was able to achieve such results.

Keeping Up with the Joneses would not be so successful if it were not well-coordinated work "Quartet neighbor." The film would not have looked so much fun and provocatively, if not funny duet face Zach Galifianakis and Isla Fisher. The bulk of the work - this is the duo. See them gradually want more and more, and when added to them more and Gal Gadot and Patton Oswalt, then the picture goes full amusement happiness. And it's not that they in turn "pin up" each other, and that even alone, without its mate duo trying to pull a film up. Sometimes they succeed, but still their main strength - is the acting together. Pleases also a bouncy soundtrack, which has to match for. This "svezhachok" does not give sour ears, but only contrary encourages them each time, making the film more rosy.

Category: MOVIES | Added by: mikail
Views: 721 | Downloads: 319

If you have problems with torrent file ask us

DOWNLOAD TORRENT FOR FREE
Loading...