Home » Files » MOVIES

Kidnap (2017)
[ Download from this server (66.0Kb) · Screenshot ] 21.05.2017, 00:31

3.27 GB

A mother stops at nothing to recover her kidnapped son.

Video
ID                                       : 1
Format                                   : AVC
Format/Info                              : Advanced Video Codec
Format profile                           : High@L4
Format settings, CABAC                   : Yes
Format settings, ReFrames                : 5 frames
Codec ID                                 : V_MPEG4/ISO/AVC
Duration                                 : 1h 35mn
Bit rate                                 : 4 446 Kbps
Width                                    : 1 916 pixels
Height                                   : 796 pixels
Display aspect ratio                     : 2.40:1
Frame rate mode                          : Constant
Frame rate                               : 24.000 fps
Color space                              : YUV
Chroma subsampling                       : 4:2:0
Bit depth                                : 8 bits
Scan type                                : Progressive
Bits/(Pixel*Frame)                       : 0.121
Stream size                              : 2.95 GiB (90%)
Title                                    : Kidnap.2017.1080p.WEB-DL.DD5.1.H264-FGT
Language                                 : English
Default                                  : Yes
Forced                                   : No
Color range                              : Limited
Color primaries                          : BT.709
Transfer characteristics                 : BT.709
Matrix coefficients                      : BT.709

Audio
ID                                       : 2
Format                                   : AC-3
Format/Info                              : Audio Coding 3
Mode extension                           : CM (complete main)
Format settings, Endianness              : Big
Codec ID                                 : A_AC3
Duration                                 : 1h 35mn
Bit rate mode                            : Constant
Bit rate                                 : 384 Kbps
Channel(s)                               : 6 channels
Channel positions                        : Front: L C R, Side: L R, LFE
Sampling rate                            : 48.0 KHz
Frame rate                               : 31.250 fps (1536 spf)
Compression mode                         : Lossy
Stream size                              : 261 MiB (8%)
Title                                    : Kidnap.2017.1080p.WEB-DL.DD5.1.H264-FGT
Language                                 : English
Default                                  : Yes
Forced                                   : No

07e748b0bfc80e539ab4ca6cd093751b.th.png 3f01eb3e53e5e4ed5d30f62f2d4884d5.th.png

A gentle and caring mother, a calm and quiet woman named Kate, alone raising her four-year-old son, one day turns into an irresistible force capable of overcoming everything in the world. Kidnap (2017) torrent hd Her little child is being kidnapped, and the police, acting according to the protocol, are waiting for time and rather slowly spinning the flywheel of the kidnapping of the child.

The heroine can not wait that much, and motherly feelings push her to desperate steps. She literally alone will overcome incredible dangers and, for the sake of saving her son, will go for anything. Kidnap (2017) torrent download Kate will find a faithful assistant and embark on the most adventurous adventure in her life, every minute being between anxiety and hope.

On a sunny day, the mother and her son go for a walk. In the car they laugh, recording everything on the recorder that comes to mind. On the playground play a simple game - Frankie hides and, when the mother screams cherished "Marco", "emerges" from the shelter with a joyful response "Polo". Kidnap (2017) torrent watch Then the fun repeats itself. Quite harmless entertainment. However, suddenly something goes wrong. In response to another "Marco" the woman does not hear anything. In a panic, she rushes for searches and finds only a toy recorder, lying on a bench.

Not believing in what is happening, the heroine notices how an unknown woman drags her son into the car. Kidnap (2017) torrent for free The chase begins, which ends with a loss from the sight of the car. Then, in despair, the mother runs to the police, but confronted with the fact that this very minute no one is going to do anything, decides to act on her own. "Abduction" is a depressing story of the struggle of an ordinary person for the life of a loved one. This is a harsh story about the very real things that are happening in our world. Turning on the screen drama is unlikely to leave anyone indifferent.

Category: MOVIES | Added by: mikail | Tags: web, H264, 2017, FGT, 1080p, kidnap, kidnap torrent, DD5, movies torrents 2017
Views: 5056 | Downloads: 2539

We will find for you any torrent file. Just Email Us: overhear1995@gmail.com

Loading...
Total comments: 0
avatar