Home » Files » MOVIES

The Girl with All the Gifts
[ Download from this server (124.7Kb) · Screenshot ] 04.01.2017, 00:10

1.45 GB

In a dystopian near future, humanity has been ravaged by a mysterious fungal disease. The afflicted are robbed of all free will and turned into flesh-eating 'hungries'. Humankind's only hope is a small group of hybrid children who crave human flesh but retain the ability to think and feel. The children go to school at an army base in rural Britain, where they're subjected to cruel experiments by Dr. Caroline Caldwell (Glenn Close). School teacher Helen Justineau (Gemma Arterton) grows particularly close to an exceptional girl named Melanie (Sennia Nanua), thus forming a special bond. But when the base is invaded, the trio escape with the assistance of Sgt. Eddie Parks (Paddy Considine) and embark on a perilous journey of survival, during which Melanie must come to terms with who she is.

General
Complete name : The.Girl.With.All.The.Gifts.2016.HDRip.XVID.AC3.HQ.Hive-CM8.avi
Format : AVI
Format/Info : Audio Video Interleave
File size : 1.53 GiB
Duration : 1h 45mn
Overall bit rate : 2 064 Kbps
Writing application : Nandub v1.0rc2
Writing library : Nandub build 1853/release

Video
ID : 0
Format : MPEG-4 Visual
Format profile : Advanced Simple@L5
Format settings, BVOP : 2
Format settings, QPel : Yes
Format settings, GMC : No warppoints
Format settings, Matrix : Default (H.263)
Muxing mode : Packed bitstream
Codec ID : XVID
Codec ID/Hint : XviD
Duration : 1h 45mn
Bit rate : 1 799 Kbps
Width : 720 pixels
Height : 352 pixels
Display aspect ratio : 2.045
Frame rate : 23.976 fps
Color space : YUV
Chroma subsampling : 4:2:0
Bit depth : 8 bits
Scan type : Progressive
Compression mode : Lossy
Bits/(Pixel*Frame) : 0.296
Stream size : 1.33 GiB (87%)
Writing library : XviD 1.2.1 (UTC 2008-12-04)

Audio
ID : 1
Format : AC-3
Format/Info : Audio Coding 3
Mode extension : CM (complete main)
Format settings, Endianness : Big
Codec ID : 2000
Duration : 1h 45mn
Bit rate mode : Constant
Bit rate : 256 Kbps
Channel(s) : 2 channels
Channel positions : Front: L R
Sampling rate : 48.0 KHz
Bit depth : 16 bits
Compression mode : Lossy
Stream size : 194 MiB (12%)
Alignment : Split accross interleaves
Interleave, duration : 42 ms (1.00 video frame)
Interleave, preload duration : 500 ms

14899e00f893a9cb6d9af8f371746dc3.png04a8f76503c327a26f29207e4ba4a518.png 0d4ec7150ae8e47d18917b06ec16b798.png b6830e191159fec735fadf15a7c5e86a.png e08f696ae77f7a727c3fe6c2cea61fb1.png e3b414bae2f3dfef9ebbc262c285218c.png

United Kingdom, the near future. In a secret lab in solitary confinement under the supervision of every second contains the children about the same age - 10-12 years. Every morning they gunpoint tightly tied to a wheelchair and taken to the premises, serving a school class. There's a beautiful woman Helen Justin (Gemma Arterton) tells the ancient Greek myths, then the children are sent back to the camera, fed live worms and left alone. young Melanie (Sennia NASU) stands out among the countries of the inhabitants of this prison-lab - black girl very fond of Justin seems precocious.

Periodically, the narrow opening in the cell door watching the scene elderly Dr. Colwell (Glenn Close) - after that prisoners will not be returned to class in the morning. In the world at this time raging zombie apocalypse that began due to the spread of a mysterious virus. At some point the army of the living dead erupts on the base area and significantly reduces its population - survive only manage to Melanie, Justin, Dr. Colwell and two soldiers. They are sent to the base in London, which seems to be not yet fallen victim to the invasion of zombies.

In the "The Girl with All the Gifts» mutated zombies take decisive revenge for all the years of cinematic indignities, ascended to the top of the food chain, not only, but also all other hierarchies. Directed by Colm McCarthy, known mostly for work on TV (in its track record of such series as "The Tudors," "Sherlock" and "Sharp visors") declares itself as a mature master of genre feature films. His new film, of course, does not make any revolution, but suddenly finds a place for new and interesting statements on the territory, where seemingly everything is up and down is investigated.

Category: MOVIES | Added by: mikail | Tags: movies torrent 2017, The Girl with All the Gifts torrent
Views: 2848 | Downloads: 1427

Torrentlos.com - vip torrent site

Total comments: 0
avatar