Home » Files » MOVIES

The River Thief (2016)
[ Download from this server (14.3Kb) · Screenshot ] 15.07.2017, 21:06

1.37 GB

Diz (Joel Courtney) is a reckless teenage drifter living life on the run. Abandoned by his parents as a child, he looks out for himself and doesn't accept handouts. He takes whatever he wants and runs. Jaded and determined to answer to no one, Diz lives a life marked by thievery and abandonment. Things change for Diz when he floats into a small town on the Snake River. There he is confronted by an unflappable old man named Marty and falls for Marty's guarded granddaughter, Selah. When Diz robs a local drug-dealing crazy, he becomes the owner of a giant pile of cash and the target of two vicious killers. With more money than he knows what to do with, and criminals at his heels, Diz puts the people he's learned to care about in danger, still trying to win Selah. But some things can't be stolen or bought. The River Thief is a film about guilt, self-sacrifice, and accepting life as a gift.

Country: USA
Genre: Drama
Year of manufacture: 2016
Duration: 1:27:01

Video Quality: HDRip
Video format: AVI
Video: XVID, 720x304, 2.35: 1, 23.976 fps, 1852 kbps
Audio: AC-3, 48.0 KHz, 384 kbps, 6 ch
Subtitle format: softsub (SRT)

239960bc1a10c8e0b1af740a52c8e730.th.png e753d77f14be0ec34912e4f498a045fb.th.png

Street children are always very difficult. The teenager, Dees, makes a living by ordinary theft. As described in the film "River Thief torrent 2016", he has been lucky for a long time in this difficult and dangerous craft. Diz wants to find his parent, but the only thing he remembers is just what color his father's shoes were.

Wanderings thrown the teenager into the small town of Snake River. It is located on the bank of a large river. The River Thief (2016) torrent download Here he met with the elderly owner of Marty Cafe and his granddaughter Sala. For the first time in many years people treated him with understanding and tolerance. The River Thief (2016) torrent hd The girl liked the teenager and he wants to do something big and important for her. Therefore, the young man decides to rob criminal authority.

Diz dreams that when he has a large amount in his hands, Sala will be able to leave with him from a small town to a big world. It would seem that Diz has succeeded. Only nobody's money never happens. The River Thief (2016) torrent watch Criminals are going to return their own, which means that the young man and his friends are in great danger. It is not known what all this will lead to.

Video
ID : 0
Format : MPEG-4 Visual
Format profile : Advanced Simple@L5
Format settings, BVOP : 2
Format settings, QPel : No
Format settings, GMC : No warppoints
Format settings, Matrix : Default (H.263)
Muxing mode : Packed bitstream
Codec ID : XVID
Codec ID/Hint : XviD
Duration : 1h 27mn
Bit rate : 1 852 Kbps
Width : 720 pixels
Height : 304 pixels
Display aspect ratio : 2.35:1
Frame rate : 23.976 (23976/1000) fps
Color space : YUV
Chroma subsampling : 4:2:0
Bit depth : 8 bits
Scan type : Progressive
Compression mode : Lossy
Bits/(Pixel*Frame) : 0.353
Stream size : 1.13 GiB (82%)
Writing library : XviD 66
Audio
ID : 1
Format : AC-3
Format/Info : Audio Coding 3
Mode extension : CM (complete main)
Format settings, Endianness : Big
Codec ID : 2000
Duration : 1h 27mn
Bit rate mode : Constant
Bit rate : 384 Kbps
Channel(s) : 6 channels
Channel positions : Front: L C R, Side: L R, LFE
Sampling rate : 48.0 KHz
Frame rate : 31.250 fps (1536 spf)
Compression mode : Lossy
Stream size : 239 MiB (17%)
Alignment : Aligned on interleaves
Interleave, duration : 42 ms (1.00 video frame)
Interleave, preload duration : 512 ms

Category: MOVIES | Added by: mikail | Tags: The River Thief, hd torrent, watch online, 2016 movies torrent, download torrent
Views: 1199 | Downloads: 276
Loading...
Total comments: 0
avatar