Home » Files » TV SERIES

Fear the Walking Dead Season 3
[ Download from this server (44.7Kb) · Screenshot ] 18.10.2017, 23:08

8.65 GB

Spin off series of The Walking Dead that portrays the beginning events of the zombie apocalypse in the West coast during the same time frame when the city of Atlanta was falling under attack, while Rick was in a coma at the local hospital. It shows how the strain was already in full effect in the south while it's just starting in California.

Episodes: 1-16 of 16 full added 16 episodes

Year of manufacture: 2017
Country: USA, AMC Studios
Genre: Horror, drama
Duration: 00:47:00

Quality: WEB-DL 1080p
Container: MKV
Video: MPEG-4 AVC, 1912x1072 (16: 9), 23.976 fps, 5029 Kbps, 0.102 bits / pixel
Audio: 48 kHz, AC3, 2 ch, 384 kbps | Russian
Audio: 48 kHz, AC3, 6 ch, 384 kbps | English
Subtitles: English

Language you can change in menu of player

9379342e801926d304545d1f639da1ff.th.png c16fc8b01fa4cabbff9cda875dca7eaa.th.png

The new season for all already well-known television series will show us the continuation of the legendary confrontations. Central characters Fear the Walking Dead Season 3 online for free in good quality all series, favored by a family from Los Angeles. They face a very terrible epidemic, as a result of which they forget all family troubles.

At a time when the whole society is completely destroyed, old grievances can be forgotten. Travis, Madison and all of their kids go to Abigail. Fear the Walking Dead Season 3 torrent download They escape from the terrible bombardment and try to make every effort to kill the virus. Even the scale of this apocalypse is unknown. 

77449fcfb6ba810d5e876878c3de8993.th.png 946174731b166359dff2de6fee9b49ab.th.png

Everyone thinks that some small towns have already passed by that terrible fate, but in fact everything is not so. Fear the Walking Dead Season 3 torrent hd Even those people who escaped from the land still find themselves under threat. They stumble upon a sunken ship and discover prisoners.

All these zombies break free. The rescue of the guys is the ship, but the problem is that the crew on the ship behaves quite suspiciously. Fear the Walking Dead Season 3 watch torrent With what is it connected? Soon, it will be necessary to take some measures to stay alive.Travis and Nancy are trying to survive in the surrounding chaos. They protect each other, because the danger can be expected from anywhere.

General
Complete name : Downloads\FTWD (Season 03) LostFilm 1080\FTWD.S03E0.1080p.WEB-DL.LostFilm.mkv
Format : Matroska
Format version : Version 2
File size : 1.98 GiB
Duration : 47mn 49s
Overall bit rate : 5 914 Kbps
Encoded date : UTC 2017-06-06 22:26:00
Writing application : mkvmerge v7.8.0 ('River Man') 32bit built on Apr 3 2015 12:11:22
Writing library : libebml v1.3.1 + libmatroska v1.4.2
Video #1
ID : 1
Format : AVC
Format/Info : Advanced Video Codec
Format profile : High@L4.0
Format settings, CABAC : Yes
Format settings, ReFrames : 4 frames
Codec ID : V_MPEG4/ISO/AVC
Duration : 47mn 49s
Bit rate : 5 029 Kbps
Width : 1 912 pixels
Height : 1 072 pixels
Display aspect ratio : 16:9
Frame rate mode : Constant
Frame rate : 23.976 fps
Color space : YUV
Chroma subsampling : 4:2:0
Bit depth : 8 bits
Scan type : Progressive
Bits/(Pixel*Frame) : 0.102
Stream size : 1.68 GiB (85%)
Language : English
Default : Yes
Forced : No
Color primaries : BT.709
Transfer characteristics : BT.709
Matrix coefficients : BT.709
Color range : Limited
Audio #2
ID : 2
Format : AC-3
Format/Info : Audio Coding 3
Mode extension : CM (complete main)
Format settings, Endianness : Big
Codec ID : A_AC3
Duration : 47mn 49s
Bit rate mode : Constant
Bit rate : 384 Kbps
Channel(s) : 2 channels
Channel positions : Front: L R
Sampling rate : 48.0 KHz
Bit depth : 16 bits
Compression mode : Lossy
Delay relative to video : -42ms
Stream size : 131 MiB (6%)
Language : Russian
Default : Yes
Forced : No
Audio #3
ID : 3
Format : AC-3
Format/Info : Audio Coding 3
Mode extension : CM (complete main)
Format settings, Endianness : Big
Codec ID : A_AC3
Duration : 47mn 49s
Bit rate mode : Constant
Bit rate : 384 Kbps
Channel(s) : 6 channels
Channel positions : Front: L C R, Side: L R, LFE
Sampling rate : 48.0 KHz
Bit depth : 16 bits
Compression mode : Lossy
Delay relative to video : -42ms
Stream size : 131 MiB (6%)
Language : English
Default : No
Forced : No
Text #4
ID : 4
Format : UTF-8
Codec ID : S_TEXT/UTF8
Codec ID/Info : UTF-8 Plain Text
Language : English
Default : No
Forced : No
Text #5
ID : 5
Format : UTF-8
Codec ID : S_TEXT/UTF8
Codec ID/Info : UTF-8 Plain Text
Title : SDH
Language : English
Default : No
Forced : No

Category: TV SERIES | Added by: mikail | Tags: good quality, Season 3, Fear the Walking Dead, Fear the Walking Dead Season 3, watch online, torrent hd, Torrent Download
Views: 527 | Downloads: 163
Loading...
Total comments: 0
avatar